<svg xmlns="http://www.w3.org/2000/svg">
<defs>
<font
       id="FontID0"
       horiz-adv-x="507"
       font-variant="normal"
       font-weight="400"
       horiz-origin-x="0"
       horiz-origin-y="0"
       vert-origin-x="45"
       vert-origin-y="90"
       vert-adv-y="90"><font-face
         font-family="Impact"
         id="font-face2"><font-face-src><font-face-name
             name="Impact" /></font-face-src></font-face><missing-glyph
         id="missing-glyph6"><path
           d="M0 0z"
           id="path4" /></missing-glyph><glyph
         unicode="L"
         horiz-adv-x="380"
         d="M247 791l0 -633.001 124.001 0 0 -157.999 -330.001 0 0 791 206 0z"
         id="glyph8" /><glyph
         unicode="k"
         horiz-adv-x="478"
         d="M460 648l-79.9983 -258.5 102.998 -389.499 -188.498 0 -62.002 282.167 -0.49849 -282.167 -196.999 0 0 790.999 196.999 0 0.49849 -332.666 62.002 189.666 165.499 0z"
         id="glyph10" /><glyph
         unicode="e"
         horiz-adv-x="511"
         d="M482 313.001l-256 0 0 -140.502c0,-29.3309 2.16723,-48.3322 6.33375,-56.8332 4.3318,-8.49832 12.4996,-12.6648 24.6659,-12.6648 15.168,0 25.335,5.66466 30.3332,16.8314 5.16617,11.3346 7.66661,33.1669 7.66661,65.5021l0 85.6656 187 0 0 -47.999c0,-40.1671 -2.50045,-71.0015 -7.49867,-92.5005 -5.16883,-21.5017 -17.002,-44.5016 -35.5021,-68.9995 -18.5001,-24.5006 -42.1664,-42.8355 -70.6656,-55.1671 -28.4992,-12.1664 -64.1666,-18.3348 -107.167,-18.3348 -41.6652,0 -78.5002,6.00054 -110.499,18.1669 -31.834,12.0011 -56.6652,28.5019 -74.4989,49.4998 -17.8337,21.0006 -30,44.1683 -36.8349,69.5007 -6.83224,25.1671 -10.3323,61.8341 -10.3323,110.166l0 189.168c0,56.6652 7.66661,101.332 22.9998,134.166 15.3332,32.6684 40.3324,57.8328 75.1653,75.168 35.0009,17.5005 75.0001,26.1667 120.333,26.1667 55.335,0 101.002,-10.5003 137.002,-31.5008 35.9979,-21.0006 61.3329,-48.8333 75.8318,-83.5011 14.5015,-34.4998 21.667,-83.3331 21.667,-146.164l0 -85.8336zm-196.999 105l0 47.3325c0,33.6654 -1.83402,55.1671 -5.49938,65.0009 -3.66803,9.83118 -11.1667,14.6641 -22.5014,14.6641 -14.0004,0 -22.6666,-4.16652 -25.9988,-12.4996 -3.33482,-8.33304 -5.00089,-30.6665 -5.00089,-67.1655l0 -47.3325 59.0004 0z"
         id="glyph12" /><glyph
         unicode="T"
         horiz-adv-x="460"
         d="M455 791l0 -157.999 -120.999 0 0 -633.001 -206 0 0 633.001 -122.001 0 0 157.999 449.001 0z"
         id="glyph14" /><glyph
         unicode="b"
         horiz-adv-x="519"
         d="M232 790.999l0 -187.499c16.3329,18.9986 34.4998,33.1669 54.6659,42.4996 20.0009,9.33269 41.8332,14.0004 65.3342,14.0004 26.9984,0 50.4994,-4.16652 70.5003,-12.6675 19.833,-8.50098 34.9983,-20.3341 45.4985,-35.6673 10.5003,-15.3332 16.6661,-30.3332 18.8333,-45 2.16723,-14.6668 3.16688,-45.9997 3.16688,-93.8334l0 -292.331c0,-47.5005 -3.16688,-83.0026 -9.50063,-106.168 -6.49903,-23.3331 -21.3311,-43.4992 -44.8321,-60.6665 -23.6663,-17.1672 -51.4991,-25.6682 -83.8343,-25.6682 -23.1651,0 -44.8321,5.16883 -64.9983,15.3332 -20.0009,10.1671 -38.501,25.335 -55.1671,45.6691l-12.6675 -49.0013 -183.999 0 0 790.999 196.999 0zm60.9997 -326.999c0,33.5001 -2.16723,55.3324 -6.49903,65.6647 -4.16652,10.1671 -12.6675,15.3332 -25.1671,15.3332 -12.3343,0 -20.1662,-4.49974 -23.8342,-13.4992 -3.66537,-8.83153 -5.49938,-31.4982 -5.49938,-67.4987l0 -279.501c0,-34.833 1.99929,-57.1664 6.16581,-66.8323 4.16652,-9.83385 12.3343,-14.6668 24.6659,-14.6668 12.5022,0 20.6673,4.99823 24.5006,15.1653 3.83331,10.0018 5.66732,34.3345 5.66732,72.6676l0 273.167z"
         id="glyph16" /><glyph
         unicode="m"
         horiz-adv-x="771"
         d="M230.001 648l-3.0016 -61.6661c15.3332,24.5006 33.5001,43.0007 54.6659,55.1671 21.0006,12.3316 45.168,18.5001 72.1691,18.5001 52.6667,0 93.9987,-24.5006 124.332,-73.6672 16.5008,24.5006 35.1662,43.0007 56.0015,55.1671 20.8326,12.3316 43.8325,18.5001 69.3327,18.5001 33.3322,0 61.165,-8.16777 82.9999,-24.5006 22.0002,-16.1676 36.0006,-36.1658 42.1664,-59.8321 6.16581,-23.501 9.33269,-61.8341 9.33269,-115.002l0 -460.666 -190.999 0 0 422.501c0,55.3324 -1.83402,89.4989 -5.66732,102.665 -3.66537,13.1687 -12.3343,19.833 -26.1667,19.833 -14.0004,0 -22.9998,-6.49903 -27.0011,-19.4998 -4.16652,-12.9981 -6.16581,-47.3325 -6.16581,-102.998l0 -422.501 -190.999 0 0 411.667c0,63.5001 -1.5008,101.665 -4.66768,114.333 -2.99894,12.6675 -11.6652,18.9986 -25.6656,18.9986 -8.8342,0 -16.1676,-3.33215 -22.5014,-9.99912 -6.16581,-6.66697 -9.50063,-14.8321 -10.1671,-24.5006 -0.66643,-9.49796 -0.999645,-30 -0.999645,-61.165l0 -449.334 -190.999 0 0 648 194.001 0z"
         id="glyph18" /><glyph
         unicode="d"
         horiz-adv-x="519"
         d="M483.999 790.999l0 -790.999 -196.999 0 0 47.1673c-18.9986,-19.833 -38.8316,-34.4998 -59.6668,-44.3336 -21.0006,-9.83385 -42.8328,-14.8347 -65.6647,-14.8347 -30.6691,0 -57.3343,7.99983 -79.8357,24.1674 -22.4987,16.1676 -37.0002,34.833 -43.3313,56.0015 -6.33375,21.1658 -9.50063,55.6656 -9.50063,103.665l0 303.5c0,49.833 3.16688,85.1671 9.50063,106 6.33109,20.8353 20.9979,39.1674 43.8325,55.0018 22.8319,15.8317 50.1662,23.6663 81.8323,23.6663 24.5006,0 46.8341,-4.49974 67.3335,-13.3339 20.3341,-8.8342 38.8342,-22.0002 55.5003,-39.8339l0 184.167 196.999 0zm-196.999 -305.998c0,23.6663 -1.99929,39.6659 -6.16581,47.831 -4.16652,8.16777 -12.3343,12.1664 -24.5006,12.1664 -12.0011,0 -20.0009,-3.66537 -24.1674,-10.9988 -4.16652,-7.3334 -6.16581,-23.6663 -6.16581,-48.9986l0 -317.501c0,-26.3347 1.99929,-43.6672 6.00054,-52.0002 3.99858,-8.33304 11.4999,-12.4996 22.8319,-12.4996 12.8354,0 21.5017,4.66501 25.6682,14.0004 4.3318,9.16475 6.49903,31.8314 6.49903,67.9999l0 300z"
         id="glyph20" /><glyph
         unicode="a"
         horiz-adv-x="503"
         d="M211 397.001l-185.001 0 0 43.4992c0,50.1662 5.83526,88.8325 17.3352,116.167 11.4999,27.1664 34.833,51.1659 69.666,72.0011 34.833,20.8326 80.001,31.3329 135.834,31.3329 66.6644,0 116.999,-11.8331 150.832,-35.4994 33.8333,-23.501 54.1675,-52.5014 60.9997,-86.8332 6.83491,-34.3345 10.335,-105.168 10.335,-212.335l0 -325.333 -192.001 0 0 57.8328c-11.9984,-23.3331 -27.6675,-40.6656 -46.6661,-52.3334 -19.0013,-11.6652 -41.6679,-17.5005 -68.1678,-17.5005 -34.4998,0 -66.1659,9.66857 -94.9983,29.0004 -28.8351,19.4998 -43.1687,61.8341 -43.1687,127.334l0 53.3331c0,48.5001 7.66661,81.5018 23.0025,99.1675 15.3332,17.6657 53.3331,38.1678 114,61.5009 64.833,25.5003 99.498,42.4996 104.166,51.3311 4.49974,8.8342 6.83224,26.6679 6.83224,53.8342 0,33.8333 -2.49778,55.8335 -7.66661,66.1659 -4.99823,10.1671 -13.4992,15.3332 -25.3323,15.3332 -13.4992,0 -21.8323,-4.3318 -24.9991,-12.9981 -3.33482,-8.50098 -5.00089,-30.9997 -5.00089,-67.1682l0 -67.8319zm62.999 -88.8352c-31.8314,-23.1651 -50.3315,-42.4996 -55.3324,-58.166 -5.16617,-15.6664 -7.66661,-37.9999 -7.66661,-67.3335 0,-33.6654 2.16723,-55.1671 6.66697,-64.9983 4.33446,-9.83385 13.166,-14.6668 26.332,-14.6668 12.5022,0 20.5021,3.83331 24.3354,11.4999 3.83331,7.66661 5.66466,27.6649 5.66466,60.3333l0 133.331z"
         id="glyph22" /></font><style
       type="text/css"
       id="style25"><![CDATA[
    @font-face { font-family:"Impact";font-variant:normal;font-weight:normal;src:url("#FontID0") format(svg)}
    .str0 {stroke:#2B2A29;stroke-width:7.62;stroke-miterlimit:22.9256}
    .fil0 {fill:#FEFEFE}
    .fil1 {fill:#898989}
    .fil2 {fill:#7690C9}
    .fil3 {fill:#393185}
    .fnt1 {font-weight:normal;font-size:3751.33px;font-family:'Impact'}
    .fnt0 {font-weight:normal;font-size:3970.53px;font-family:'Impact'}
   ]]></style><g
       id="s"><g
         id="c"><path
           transform="rotate(18,3.1568758,-0.5)"
           d="M 0,0 V 1 H 0.5 Z"
           id="t" /><use
           id="use634"
           transform="scale(-1,1)"
           xlink:href="#t" /></g><g
         id="a"><use
           id="use637"
           transform="rotate(72)"
           xlink:href="#c" /><use
           id="use639"
           transform="rotate(144)"
           xlink:href="#c" /></g><use
         id="use642"
         transform="scale(-1,1)"
         xlink:href="#a" /></g><font
       id="FontID0-5"
       horiz-adv-x="507"
       font-variant="normal"
       font-weight="400"
       horiz-origin-x="0"
       horiz-origin-y="0"
       vert-origin-x="45"
       vert-origin-y="90"
       vert-adv-y="90"><font-face
         font-family="Impact"
         id="font-face2-0"><font-face-src><font-face-name
             name="Impact" /></font-face-src></font-face><missing-glyph
         id="missing-glyph6-8"><path
           d="M0 0z"
           id="path4-4" /></missing-glyph><glyph
         unicode="L"
         horiz-adv-x="380"
         d="M247 791l0 -633.001 124.001 0 0 -157.999 -330.001 0 0 791 206 0z"
         id="glyph8-4" /><glyph
         unicode="k"
         horiz-adv-x="478"
         d="M460 648l-79.9983 -258.5 102.998 -389.499 -188.498 0 -62.002 282.167 -0.49849 -282.167 -196.999 0 0 790.999 196.999 0 0.49849 -332.666 62.002 189.666 165.499 0z"
         id="glyph10-7" /><glyph
         unicode="e"
         horiz-adv-x="511"
         d="M482 313.001l-256 0 0 -140.502c0,-29.3309 2.16723,-48.3322 6.33375,-56.8332 4.3318,-8.49832 12.4996,-12.6648 24.6659,-12.6648 15.168,0 25.335,5.66466 30.3332,16.8314 5.16617,11.3346 7.66661,33.1669 7.66661,65.5021l0 85.6656 187 0 0 -47.999c0,-40.1671 -2.50045,-71.0015 -7.49867,-92.5005 -5.16883,-21.5017 -17.002,-44.5016 -35.5021,-68.9995 -18.5001,-24.5006 -42.1664,-42.8355 -70.6656,-55.1671 -28.4992,-12.1664 -64.1666,-18.3348 -107.167,-18.3348 -41.6652,0 -78.5002,6.00054 -110.499,18.1669 -31.834,12.0011 -56.6652,28.5019 -74.4989,49.4998 -17.8337,21.0006 -30,44.1683 -36.8349,69.5007 -6.83224,25.1671 -10.3323,61.8341 -10.3323,110.166l0 189.168c0,56.6652 7.66661,101.332 22.9998,134.166 15.3332,32.6684 40.3324,57.8328 75.1653,75.168 35.0009,17.5005 75.0001,26.1667 120.333,26.1667 55.335,0 101.002,-10.5003 137.002,-31.5008 35.9979,-21.0006 61.3329,-48.8333 75.8318,-83.5011 14.5015,-34.4998 21.667,-83.3331 21.667,-146.164l0 -85.8336zm-196.999 105l0 47.3325c0,33.6654 -1.83402,55.1671 -5.49938,65.0009 -3.66803,9.83118 -11.1667,14.6641 -22.5014,14.6641 -14.0004,0 -22.6666,-4.16652 -25.9988,-12.4996 -3.33482,-8.33304 -5.00089,-30.6665 -5.00089,-67.1655l0 -47.3325 59.0004 0z"
         id="glyph12-6" /><glyph
         unicode="T"
         horiz-adv-x="460"
         d="M455 791l0 -157.999 -120.999 0 0 -633.001 -206 0 0 633.001 -122.001 0 0 157.999 449.001 0z"
         id="glyph14-2" /><glyph
         unicode="b"
         horiz-adv-x="519"
         d="M232 790.999l0 -187.499c16.3329,18.9986 34.4998,33.1669 54.6659,42.4996 20.0009,9.33269 41.8332,14.0004 65.3342,14.0004 26.9984,0 50.4994,-4.16652 70.5003,-12.6675 19.833,-8.50098 34.9983,-20.3341 45.4985,-35.6673 10.5003,-15.3332 16.6661,-30.3332 18.8333,-45 2.16723,-14.6668 3.16688,-45.9997 3.16688,-93.8334l0 -292.331c0,-47.5005 -3.16688,-83.0026 -9.50063,-106.168 -6.49903,-23.3331 -21.3311,-43.4992 -44.8321,-60.6665 -23.6663,-17.1672 -51.4991,-25.6682 -83.8343,-25.6682 -23.1651,0 -44.8321,5.16883 -64.9983,15.3332 -20.0009,10.1671 -38.501,25.335 -55.1671,45.6691l-12.6675 -49.0013 -183.999 0 0 790.999 196.999 0zm60.9997 -326.999c0,33.5001 -2.16723,55.3324 -6.49903,65.6647 -4.16652,10.1671 -12.6675,15.3332 -25.1671,15.3332 -12.3343,0 -20.1662,-4.49974 -23.8342,-13.4992 -3.66537,-8.83153 -5.49938,-31.4982 -5.49938,-67.4987l0 -279.501c0,-34.833 1.99929,-57.1664 6.16581,-66.8323 4.16652,-9.83385 12.3343,-14.6668 24.6659,-14.6668 12.5022,0 20.6673,4.99823 24.5006,15.1653 3.83331,10.0018 5.66732,34.3345 5.66732,72.6676l0 273.167z"
         id="glyph16-3" /><glyph
         unicode="m"
         horiz-adv-x="771"
         d="M230.001 648l-3.0016 -61.6661c15.3332,24.5006 33.5001,43.0007 54.6659,55.1671 21.0006,12.3316 45.168,18.5001 72.1691,18.5001 52.6667,0 93.9987,-24.5006 124.332,-73.6672 16.5008,24.5006 35.1662,43.0007 56.0015,55.1671 20.8326,12.3316 43.8325,18.5001 69.3327,18.5001 33.3322,0 61.165,-8.16777 82.9999,-24.5006 22.0002,-16.1676 36.0006,-36.1658 42.1664,-59.8321 6.16581,-23.501 9.33269,-61.8341 9.33269,-115.002l0 -460.666 -190.999 0 0 422.501c0,55.3324 -1.83402,89.4989 -5.66732,102.665 -3.66537,13.1687 -12.3343,19.833 -26.1667,19.833 -14.0004,0 -22.9998,-6.49903 -27.0011,-19.4998 -4.16652,-12.9981 -6.16581,-47.3325 -6.16581,-102.998l0 -422.501 -190.999 0 0 411.667c0,63.5001 -1.5008,101.665 -4.66768,114.333 -2.99894,12.6675 -11.6652,18.9986 -25.6656,18.9986 -8.8342,0 -16.1676,-3.33215 -22.5014,-9.99912 -6.16581,-6.66697 -9.50063,-14.8321 -10.1671,-24.5006 -0.66643,-9.49796 -0.999645,-30 -0.999645,-61.165l0 -449.334 -190.999 0 0 648 194.001 0z"
         id="glyph18-4" /><glyph
         unicode="d"
         horiz-adv-x="519"
         d="M483.999 790.999l0 -790.999 -196.999 0 0 47.1673c-18.9986,-19.833 -38.8316,-34.4998 -59.6668,-44.3336 -21.0006,-9.83385 -42.8328,-14.8347 -65.6647,-14.8347 -30.6691,0 -57.3343,7.99983 -79.8357,24.1674 -22.4987,16.1676 -37.0002,34.833 -43.3313,56.0015 -6.33375,21.1658 -9.50063,55.6656 -9.50063,103.665l0 303.5c0,49.833 3.16688,85.1671 9.50063,106 6.33109,20.8353 20.9979,39.1674 43.8325,55.0018 22.8319,15.8317 50.1662,23.6663 81.8323,23.6663 24.5006,0 46.8341,-4.49974 67.3335,-13.3339 20.3341,-8.8342 38.8342,-22.0002 55.5003,-39.8339l0 184.167 196.999 0zm-196.999 -305.998c0,23.6663 -1.99929,39.6659 -6.16581,47.831 -4.16652,8.16777 -12.3343,12.1664 -24.5006,12.1664 -12.0011,0 -20.0009,-3.66537 -24.1674,-10.9988 -4.16652,-7.3334 -6.16581,-23.6663 -6.16581,-48.9986l0 -317.501c0,-26.3347 1.99929,-43.6672 6.00054,-52.0002 3.99858,-8.33304 11.4999,-12.4996 22.8319,-12.4996 12.8354,0 21.5017,4.66501 25.6682,14.0004 4.3318,9.16475 6.49903,31.8314 6.49903,67.9999l0 300z"
         id="glyph20-7" /><glyph
         unicode="a"
         horiz-adv-x="503"
         d="M211 397.001l-185.001 0 0 43.4992c0,50.1662 5.83526,88.8325 17.3352,116.167 11.4999,27.1664 34.833,51.1659 69.666,72.0011 34.833,20.8326 80.001,31.3329 135.834,31.3329 66.6644,0 116.999,-11.8331 150.832,-35.4994 33.8333,-23.501 54.1675,-52.5014 60.9997,-86.8332 6.83491,-34.3345 10.335,-105.168 10.335,-212.335l0 -325.333 -192.001 0 0 57.8328c-11.9984,-23.3331 -27.6675,-40.6656 -46.6661,-52.3334 -19.0013,-11.6652 -41.6679,-17.5005 -68.1678,-17.5005 -34.4998,0 -66.1659,9.66857 -94.9983,29.0004 -28.8351,19.4998 -43.1687,61.8341 -43.1687,127.334l0 53.3331c0,48.5001 7.66661,81.5018 23.0025,99.1675 15.3332,17.6657 53.3331,38.1678 114,61.5009 64.833,25.5003 99.498,42.4996 104.166,51.3311 4.49974,8.8342 6.83224,26.6679 6.83224,53.8342 0,33.8333 -2.49778,55.8335 -7.66661,66.1659 -4.99823,10.1671 -13.4992,15.3332 -25.3323,15.3332 -13.4992,0 -21.8323,-4.3318 -24.9991,-12.9981 -3.33482,-8.50098 -5.00089,-30.9997 -5.00089,-67.1682l0 -67.8319zm62.999 -88.8352c-31.8314,-23.1651 -50.3315,-42.4996 -55.3324,-58.166 -5.16617,-15.6664 -7.66661,-37.9999 -7.66661,-67.3335 0,-33.6654 2.16723,-55.1671 6.66697,-64.9983 4.33446,-9.83385 13.166,-14.6668 26.332,-14.6668 12.5022,0 20.5021,3.83331 24.3354,11.4999 3.83331,7.66661 5.66466,27.6649 5.66466,60.3333l0 133.331z"
         id="glyph22-1" /></font><style
       type="text/css"
       id="style25-5"><![CDATA[
    @font-face { font-family:"Impact";font-variant:normal;font-weight:normal;src:url("#FontID0") format(svg)}
    .str0 {stroke:#2B2A29;stroke-width:7.62;stroke-miterlimit:22.9256}
    .fil0 {fill:#FEFEFE}
    .fil1 {fill:#898989}
    .fil2 {fill:#7690C9}
    .fil3 {fill:#393185}
    .fnt1 {font-weight:normal;font-size:3751.33px;font-family:'Impact'}
    .fnt0 {font-weight:normal;font-size:3970.53px;font-family:'Impact'}
   ]]></style><g
       id="s-3"><g
         id="c-9"><path
           transform="rotate(18,3.1568758,-0.5)"
           d="M 0,0 V 1 H 0.5 Z"
           id="t-9" /><use
           id="use634-9"
           transform="scale(-1,1)"
           xlink:href="#t-9" /></g><g
         id="a-6"><use
           id="use637-2"
           transform="rotate(72)"
           xlink:href="#c-9" /><use
           id="use639-3"
           transform="rotate(144)"
           xlink:href="#c-9" /></g><use
         id="use642-3"
         transform="scale(-1,1)"
         xlink:href="#a-6" /></g><font
       id="FontID0-6"
       horiz-adv-x="507"
       font-variant="normal"
       font-weight="400"
       horiz-origin-x="0"
       horiz-origin-y="0"
       vert-origin-x="45"
       vert-origin-y="90"
       vert-adv-y="90"><font-face
         font-family="Impact"
         id="font-face2-5"><font-face-src><font-face-name
             name="Impact" /></font-face-src></font-face><missing-glyph
         id="missing-glyph6-5"><path
           d="M0 0z"
           id="path4-7" /></missing-glyph><glyph
         unicode="L"
         horiz-adv-x="380"
         d="M247 791l0 -633.001 124.001 0 0 -157.999 -330.001 0 0 791 206 0z"
         id="glyph8-0" /><glyph
         unicode="k"
         horiz-adv-x="478"
         d="M460 648l-79.9983 -258.5 102.998 -389.499 -188.498 0 -62.002 282.167 -0.49849 -282.167 -196.999 0 0 790.999 196.999 0 0.49849 -332.666 62.002 189.666 165.499 0z"
         id="glyph10-8" /><glyph
         unicode="e"
         horiz-adv-x="511"
         d="M482 313.001l-256 0 0 -140.502c0,-29.3309 2.16723,-48.3322 6.33375,-56.8332 4.3318,-8.49832 12.4996,-12.6648 24.6659,-12.6648 15.168,0 25.335,5.66466 30.3332,16.8314 5.16617,11.3346 7.66661,33.1669 7.66661,65.5021l0 85.6656 187 0 0 -47.999c0,-40.1671 -2.50045,-71.0015 -7.49867,-92.5005 -5.16883,-21.5017 -17.002,-44.5016 -35.5021,-68.9995 -18.5001,-24.5006 -42.1664,-42.8355 -70.6656,-55.1671 -28.4992,-12.1664 -64.1666,-18.3348 -107.167,-18.3348 -41.6652,0 -78.5002,6.00054 -110.499,18.1669 -31.834,12.0011 -56.6652,28.5019 -74.4989,49.4998 -17.8337,21.0006 -30,44.1683 -36.8349,69.5007 -6.83224,25.1671 -10.3323,61.8341 -10.3323,110.166l0 189.168c0,56.6652 7.66661,101.332 22.9998,134.166 15.3332,32.6684 40.3324,57.8328 75.1653,75.168 35.0009,17.5005 75.0001,26.1667 120.333,26.1667 55.335,0 101.002,-10.5003 137.002,-31.5008 35.9979,-21.0006 61.3329,-48.8333 75.8318,-83.5011 14.5015,-34.4998 21.667,-83.3331 21.667,-146.164l0 -85.8336zm-196.999 105l0 47.3325c0,33.6654 -1.83402,55.1671 -5.49938,65.0009 -3.66803,9.83118 -11.1667,14.6641 -22.5014,14.6641 -14.0004,0 -22.6666,-4.16652 -25.9988,-12.4996 -3.33482,-8.33304 -5.00089,-30.6665 -5.00089,-67.1655l0 -47.3325 59.0004 0z"
         id="glyph12-8" /><glyph
         unicode="T"
         horiz-adv-x="460"
         d="M455 791l0 -157.999 -120.999 0 0 -633.001 -206 0 0 633.001 -122.001 0 0 157.999 449.001 0z"
         id="glyph14-7" /><glyph
         unicode="b"
         horiz-adv-x="519"
         d="M232 790.999l0 -187.499c16.3329,18.9986 34.4998,33.1669 54.6659,42.4996 20.0009,9.33269 41.8332,14.0004 65.3342,14.0004 26.9984,0 50.4994,-4.16652 70.5003,-12.6675 19.833,-8.50098 34.9983,-20.3341 45.4985,-35.6673 10.5003,-15.3332 16.6661,-30.3332 18.8333,-45 2.16723,-14.6668 3.16688,-45.9997 3.16688,-93.8334l0 -292.331c0,-47.5005 -3.16688,-83.0026 -9.50063,-106.168 -6.49903,-23.3331 -21.3311,-43.4992 -44.8321,-60.6665 -23.6663,-17.1672 -51.4991,-25.6682 -83.8343,-25.6682 -23.1651,0 -44.8321,5.16883 -64.9983,15.3332 -20.0009,10.1671 -38.501,25.335 -55.1671,45.6691l-12.6675 -49.0013 -183.999 0 0 790.999 196.999 0zm60.9997 -326.999c0,33.5001 -2.16723,55.3324 -6.49903,65.6647 -4.16652,10.1671 -12.6675,15.3332 -25.1671,15.3332 -12.3343,0 -20.1662,-4.49974 -23.8342,-13.4992 -3.66537,-8.83153 -5.49938,-31.4982 -5.49938,-67.4987l0 -279.501c0,-34.833 1.99929,-57.1664 6.16581,-66.8323 4.16652,-9.83385 12.3343,-14.6668 24.6659,-14.6668 12.5022,0 20.6673,4.99823 24.5006,15.1653 3.83331,10.0018 5.66732,34.3345 5.66732,72.6676l0 273.167z"
         id="glyph16-7" /><glyph
         unicode="m"
         horiz-adv-x="771"
         d="M230.001 648l-3.0016 -61.6661c15.3332,24.5006 33.5001,43.0007 54.6659,55.1671 21.0006,12.3316 45.168,18.5001 72.1691,18.5001 52.6667,0 93.9987,-24.5006 124.332,-73.6672 16.5008,24.5006 35.1662,43.0007 56.0015,55.1671 20.8326,12.3316 43.8325,18.5001 69.3327,18.5001 33.3322,0 61.165,-8.16777 82.9999,-24.5006 22.0002,-16.1676 36.0006,-36.1658 42.1664,-59.8321 6.16581,-23.501 9.33269,-61.8341 9.33269,-115.002l0 -460.666 -190.999 0 0 422.501c0,55.3324 -1.83402,89.4989 -5.66732,102.665 -3.66537,13.1687 -12.3343,19.833 -26.1667,19.833 -14.0004,0 -22.9998,-6.49903 -27.0011,-19.4998 -4.16652,-12.9981 -6.16581,-47.3325 -6.16581,-102.998l0 -422.501 -190.999 0 0 411.667c0,63.5001 -1.5008,101.665 -4.66768,114.333 -2.99894,12.6675 -11.6652,18.9986 -25.6656,18.9986 -8.8342,0 -16.1676,-3.33215 -22.5014,-9.99912 -6.16581,-6.66697 -9.50063,-14.8321 -10.1671,-24.5006 -0.66643,-9.49796 -0.999645,-30 -0.999645,-61.165l0 -449.334 -190.999 0 0 648 194.001 0z"
         id="glyph18-2" /><glyph
         unicode="d"
         horiz-adv-x="519"
         d="M483.999 790.999l0 -790.999 -196.999 0 0 47.1673c-18.9986,-19.833 -38.8316,-34.4998 -59.6668,-44.3336 -21.0006,-9.83385 -42.8328,-14.8347 -65.6647,-14.8347 -30.6691,0 -57.3343,7.99983 -79.8357,24.1674 -22.4987,16.1676 -37.0002,34.833 -43.3313,56.0015 -6.33375,21.1658 -9.50063,55.6656 -9.50063,103.665l0 303.5c0,49.833 3.16688,85.1671 9.50063,106 6.33109,20.8353 20.9979,39.1674 43.8325,55.0018 22.8319,15.8317 50.1662,23.6663 81.8323,23.6663 24.5006,0 46.8341,-4.49974 67.3335,-13.3339 20.3341,-8.8342 38.8342,-22.0002 55.5003,-39.8339l0 184.167 196.999 0zm-196.999 -305.998c0,23.6663 -1.99929,39.6659 -6.16581,47.831 -4.16652,8.16777 -12.3343,12.1664 -24.5006,12.1664 -12.0011,0 -20.0009,-3.66537 -24.1674,-10.9988 -4.16652,-7.3334 -6.16581,-23.6663 -6.16581,-48.9986l0 -317.501c0,-26.3347 1.99929,-43.6672 6.00054,-52.0002 3.99858,-8.33304 11.4999,-12.4996 22.8319,-12.4996 12.8354,0 21.5017,4.66501 25.6682,14.0004 4.3318,9.16475 6.49903,31.8314 6.49903,67.9999l0 300z"
         id="glyph20-1" /><glyph
         unicode="a"
         horiz-adv-x="503"
         d="M211 397.001l-185.001 0 0 43.4992c0,50.1662 5.83526,88.8325 17.3352,116.167 11.4999,27.1664 34.833,51.1659 69.666,72.0011 34.833,20.8326 80.001,31.3329 135.834,31.3329 66.6644,0 116.999,-11.8331 150.832,-35.4994 33.8333,-23.501 54.1675,-52.5014 60.9997,-86.8332 6.83491,-34.3345 10.335,-105.168 10.335,-212.335l0 -325.333 -192.001 0 0 57.8328c-11.9984,-23.3331 -27.6675,-40.6656 -46.6661,-52.3334 -19.0013,-11.6652 -41.6679,-17.5005 -68.1678,-17.5005 -34.4998,0 -66.1659,9.66857 -94.9983,29.0004 -28.8351,19.4998 -43.1687,61.8341 -43.1687,127.334l0 53.3331c0,48.5001 7.66661,81.5018 23.0025,99.1675 15.3332,17.6657 53.3331,38.1678 114,61.5009 64.833,25.5003 99.498,42.4996 104.166,51.3311 4.49974,8.8342 6.83224,26.6679 6.83224,53.8342 0,33.8333 -2.49778,55.8335 -7.66661,66.1659 -4.99823,10.1671 -13.4992,15.3332 -25.3323,15.3332 -13.4992,0 -21.8323,-4.3318 -24.9991,-12.9981 -3.33482,-8.50098 -5.00089,-30.9997 -5.00089,-67.1682l0 -67.8319zm62.999 -88.8352c-31.8314,-23.1651 -50.3315,-42.4996 -55.3324,-58.166 -5.16617,-15.6664 -7.66661,-37.9999 -7.66661,-67.3335 0,-33.6654 2.16723,-55.1671 6.66697,-64.9983 4.33446,-9.83385 13.166,-14.6668 26.332,-14.6668 12.5022,0 20.5021,3.83331 24.3354,11.4999 3.83331,7.66661 5.66466,27.6649 5.66466,60.3333l0 133.331z"
         id="glyph22-2" /></font><style
       type="text/css"
       id="style25-3"><![CDATA[
    @font-face { font-family:"Impact";font-variant:normal;font-weight:normal;src:url("#FontID0") format(svg)}
    .str0 {stroke:#2B2A29;stroke-width:7.62;stroke-miterlimit:22.9256}
    .fil0 {fill:#FEFEFE}
    .fil1 {fill:#898989}
    .fil2 {fill:#7690C9}
    .fil3 {fill:#393185}
    .fnt1 {font-weight:normal;font-size:3751.33px;font-family:'Impact'}
    .fnt0 {font-weight:normal;font-size:3970.53px;font-family:'Impact'}
   ]]></style><g
       id="s-7"><g
         id="c-7"><path
           transform="rotate(18,3.1568758,-0.5)"
           d="M 0,0 V 1 H 0.5 Z"
           id="t-7" /><use
           id="use634-4"
           transform="scale(-1,1)"
           xlink:href="#t-7" /></g><g
         id="a-0"><use
           id="use637-0"
           transform="rotate(72)"
           xlink:href="#c-7" /><use
           id="use639-5"
           transform="rotate(144)"
           xlink:href="#c-7" /></g><use
         id="use642-8"
         transform="scale(-1,1)"
         xlink:href="#a-0" /></g><font
       id="FontID0-2"
       horiz-adv-x="507"
       font-variant="normal"
       font-weight="400"
       horiz-origin-x="0"
       horiz-origin-y="0"
       vert-origin-x="45"
       vert-origin-y="90"
       vert-adv-y="90"><font-face
         font-family="Impact"
         id="font-face2-1"><font-face-src><font-face-name
             name="Impact" /></font-face-src></font-face><missing-glyph
         id="missing-glyph6-1"><path
           d="M0 0z"
           id="path4-5" /></missing-glyph><glyph
         unicode="L"
         horiz-adv-x="380"
         d="M247 791l0 -633.001 124.001 0 0 -157.999 -330.001 0 0 791 206 0z"
         id="glyph8-9" /><glyph
         unicode="k"
         horiz-adv-x="478"
         d="M460 648l-79.9983 -258.5 102.998 -389.499 -188.498 0 -62.002 282.167 -0.49849 -282.167 -196.999 0 0 790.999 196.999 0 0.49849 -332.666 62.002 189.666 165.499 0z"
         id="glyph10-6" /><glyph
         unicode="e"
         horiz-adv-x="511"
         d="M482 313.001l-256 0 0 -140.502c0,-29.3309 2.16723,-48.3322 6.33375,-56.8332 4.3318,-8.49832 12.4996,-12.6648 24.6659,-12.6648 15.168,0 25.335,5.66466 30.3332,16.8314 5.16617,11.3346 7.66661,33.1669 7.66661,65.5021l0 85.6656 187 0 0 -47.999c0,-40.1671 -2.50045,-71.0015 -7.49867,-92.5005 -5.16883,-21.5017 -17.002,-44.5016 -35.5021,-68.9995 -18.5001,-24.5006 -42.1664,-42.8355 -70.6656,-55.1671 -28.4992,-12.1664 -64.1666,-18.3348 -107.167,-18.3348 -41.6652,0 -78.5002,6.00054 -110.499,18.1669 -31.834,12.0011 -56.6652,28.5019 -74.4989,49.4998 -17.8337,21.0006 -30,44.1683 -36.8349,69.5007 -6.83224,25.1671 -10.3323,61.8341 -10.3323,110.166l0 189.168c0,56.6652 7.66661,101.332 22.9998,134.166 15.3332,32.6684 40.3324,57.8328 75.1653,75.168 35.0009,17.5005 75.0001,26.1667 120.333,26.1667 55.335,0 101.002,-10.5003 137.002,-31.5008 35.9979,-21.0006 61.3329,-48.8333 75.8318,-83.5011 14.5015,-34.4998 21.667,-83.3331 21.667,-146.164l0 -85.8336zm-196.999 105l0 47.3325c0,33.6654 -1.83402,55.1671 -5.49938,65.0009 -3.66803,9.83118 -11.1667,14.6641 -22.5014,14.6641 -14.0004,0 -22.6666,-4.16652 -25.9988,-12.4996 -3.33482,-8.33304 -5.00089,-30.6665 -5.00089,-67.1655l0 -47.3325 59.0004 0z"
         id="glyph12-0" /><glyph
         unicode="T"
         horiz-adv-x="460"
         d="M455 791l0 -157.999 -120.999 0 0 -633.001 -206 0 0 633.001 -122.001 0 0 157.999 449.001 0z"
         id="glyph14-5" /><glyph
         unicode="b"
         horiz-adv-x="519"
         d="M232 790.999l0 -187.499c16.3329,18.9986 34.4998,33.1669 54.6659,42.4996 20.0009,9.33269 41.8332,14.0004 65.3342,14.0004 26.9984,0 50.4994,-4.16652 70.5003,-12.6675 19.833,-8.50098 34.9983,-20.3341 45.4985,-35.6673 10.5003,-15.3332 16.6661,-30.3332 18.8333,-45 2.16723,-14.6668 3.16688,-45.9997 3.16688,-93.8334l0 -292.331c0,-47.5005 -3.16688,-83.0026 -9.50063,-106.168 -6.49903,-23.3331 -21.3311,-43.4992 -44.8321,-60.6665 -23.6663,-17.1672 -51.4991,-25.6682 -83.8343,-25.6682 -23.1651,0 -44.8321,5.16883 -64.9983,15.3332 -20.0009,10.1671 -38.501,25.335 -55.1671,45.6691l-12.6675 -49.0013 -183.999 0 0 790.999 196.999 0zm60.9997 -326.999c0,33.5001 -2.16723,55.3324 -6.49903,65.6647 -4.16652,10.1671 -12.6675,15.3332 -25.1671,15.3332 -12.3343,0 -20.1662,-4.49974 -23.8342,-13.4992 -3.66537,-8.83153 -5.49938,-31.4982 -5.49938,-67.4987l0 -279.501c0,-34.833 1.99929,-57.1664 6.16581,-66.8323 4.16652,-9.83385 12.3343,-14.6668 24.6659,-14.6668 12.5022,0 20.6673,4.99823 24.5006,15.1653 3.83331,10.0018 5.66732,34.3345 5.66732,72.6676l0 273.167z"
         id="glyph16-5" /><glyph
         unicode="m"
         horiz-adv-x="771"
         d="M230.001 648l-3.0016 -61.6661c15.3332,24.5006 33.5001,43.0007 54.6659,55.1671 21.0006,12.3316 45.168,18.5001 72.1691,18.5001 52.6667,0 93.9987,-24.5006 124.332,-73.6672 16.5008,24.5006 35.1662,43.0007 56.0015,55.1671 20.8326,12.3316 43.8325,18.5001 69.3327,18.5001 33.3322,0 61.165,-8.16777 82.9999,-24.5006 22.0002,-16.1676 36.0006,-36.1658 42.1664,-59.8321 6.16581,-23.501 9.33269,-61.8341 9.33269,-115.002l0 -460.666 -190.999 0 0 422.501c0,55.3324 -1.83402,89.4989 -5.66732,102.665 -3.66537,13.1687 -12.3343,19.833 -26.1667,19.833 -14.0004,0 -22.9998,-6.49903 -27.0011,-19.4998 -4.16652,-12.9981 -6.16581,-47.3325 -6.16581,-102.998l0 -422.501 -190.999 0 0 411.667c0,63.5001 -1.5008,101.665 -4.66768,114.333 -2.99894,12.6675 -11.6652,18.9986 -25.6656,18.9986 -8.8342,0 -16.1676,-3.33215 -22.5014,-9.99912 -6.16581,-6.66697 -9.50063,-14.8321 -10.1671,-24.5006 -0.66643,-9.49796 -0.999645,-30 -0.999645,-61.165l0 -449.334 -190.999 0 0 648 194.001 0z"
         id="glyph18-22" /><glyph
         unicode="d"
         horiz-adv-x="519"
         d="M483.999 790.999l0 -790.999 -196.999 0 0 47.1673c-18.9986,-19.833 -38.8316,-34.4998 -59.6668,-44.3336 -21.0006,-9.83385 -42.8328,-14.8347 -65.6647,-14.8347 -30.6691,0 -57.3343,7.99983 -79.8357,24.1674 -22.4987,16.1676 -37.0002,34.833 -43.3313,56.0015 -6.33375,21.1658 -9.50063,55.6656 -9.50063,103.665l0 303.5c0,49.833 3.16688,85.1671 9.50063,106 6.33109,20.8353 20.9979,39.1674 43.8325,55.0018 22.8319,15.8317 50.1662,23.6663 81.8323,23.6663 24.5006,0 46.8341,-4.49974 67.3335,-13.3339 20.3341,-8.8342 38.8342,-22.0002 55.5003,-39.8339l0 184.167 196.999 0zm-196.999 -305.998c0,23.6663 -1.99929,39.6659 -6.16581,47.831 -4.16652,8.16777 -12.3343,12.1664 -24.5006,12.1664 -12.0011,0 -20.0009,-3.66537 -24.1674,-10.9988 -4.16652,-7.3334 -6.16581,-23.6663 -6.16581,-48.9986l0 -317.501c0,-26.3347 1.99929,-43.6672 6.00054,-52.0002 3.99858,-8.33304 11.4999,-12.4996 22.8319,-12.4996 12.8354,0 21.5017,4.66501 25.6682,14.0004 4.3318,9.16475 6.49903,31.8314 6.49903,67.9999l0 300z"
         id="glyph20-6" /><glyph
         unicode="a"
         horiz-adv-x="503"
         d="M211 397.001l-185.001 0 0 43.4992c0,50.1662 5.83526,88.8325 17.3352,116.167 11.4999,27.1664 34.833,51.1659 69.666,72.0011 34.833,20.8326 80.001,31.3329 135.834,31.3329 66.6644,0 116.999,-11.8331 150.832,-35.4994 33.8333,-23.501 54.1675,-52.5014 60.9997,-86.8332 6.83491,-34.3345 10.335,-105.168 10.335,-212.335l0 -325.333 -192.001 0 0 57.8328c-11.9984,-23.3331 -27.6675,-40.6656 -46.6661,-52.3334 -19.0013,-11.6652 -41.6679,-17.5005 -68.1678,-17.5005 -34.4998,0 -66.1659,9.66857 -94.9983,29.0004 -28.8351,19.4998 -43.1687,61.8341 -43.1687,127.334l0 53.3331c0,48.5001 7.66661,81.5018 23.0025,99.1675 15.3332,17.6657 53.3331,38.1678 114,61.5009 64.833,25.5003 99.498,42.4996 104.166,51.3311 4.49974,8.8342 6.83224,26.6679 6.83224,53.8342 0,33.8333 -2.49778,55.8335 -7.66661,66.1659 -4.99823,10.1671 -13.4992,15.3332 -25.3323,15.3332 -13.4992,0 -21.8323,-4.3318 -24.9991,-12.9981 -3.33482,-8.50098 -5.00089,-30.9997 -5.00089,-67.1682l0 -67.8319zm62.999 -88.8352c-31.8314,-23.1651 -50.3315,-42.4996 -55.3324,-58.166 -5.16617,-15.6664 -7.66661,-37.9999 -7.66661,-67.3335 0,-33.6654 2.16723,-55.1671 6.66697,-64.9983 4.33446,-9.83385 13.166,-14.6668 26.332,-14.6668 12.5022,0 20.5021,3.83331 24.3354,11.4999 3.83331,7.66661 5.66466,27.6649 5.66466,60.3333l0 133.331z"
         id="glyph22-4" /></font><style
       type="text/css"
       id="style25-39"><![CDATA[
    @font-face { font-family:"Impact";font-variant:normal;font-weight:normal;src:url("#FontID0") format(svg)}
    .str0 {stroke:#2B2A29;stroke-width:7.62;stroke-miterlimit:22.9256}
    .fil0 {fill:#FEFEFE}
    .fil1 {fill:#898989}
    .fil2 {fill:#7690C9}
    .fil3 {fill:#393185}
    .fnt1 {font-weight:normal;font-size:3751.33px;font-family:'Impact'}
    .fnt0 {font-weight:normal;font-size:3970.53px;font-family:'Impact'}
   ]]></style><g
       id="s-34"><g
         id="c-8"><path
           transform="rotate(18,3.1568758,-0.5)"
           d="M 0,0 V 1 H 0.5 Z"
           id="t-1" /><use
           id="use634-8"
           transform="scale(-1,1)"
           xlink:href="#t-1" /></g><g
         id="a-5"><use
           id="use637-3"
           transform="rotate(72)"
           xlink:href="#c-8" /><use
           id="use639-7"
           transform="rotate(144)"
           xlink:href="#c-8" /></g><use
         id="use642-4"
         transform="scale(-1,1)"
         xlink:href="#a-5" /></g><font
       id="FontID0-7"
       horiz-adv-x="507"
       font-variant="normal"
       font-weight="400"
       horiz-origin-x="0"
       horiz-origin-y="0"
       vert-origin-x="45"
       vert-origin-y="90"
       vert-adv-y="90"><font-face
         font-family="Impact"
         id="font-face2-3"><font-face-src><font-face-name
             name="Impact" /></font-face-src></font-face><missing-glyph
         id="missing-glyph6-7"><path
           d="M0 0z"
           id="path4-49" /></missing-glyph><glyph
         unicode="L"
         horiz-adv-x="380"
         d="M247 791l0 -633.001 124.001 0 0 -157.999 -330.001 0 0 791 206 0z"
         id="glyph8-6" /><glyph
         unicode="k"
         horiz-adv-x="478"
         d="M460 648l-79.9983 -258.5 102.998 -389.499 -188.498 0 -62.002 282.167 -0.49849 -282.167 -196.999 0 0 790.999 196.999 0 0.49849 -332.666 62.002 189.666 165.499 0z"
         id="glyph10-4" /><glyph
         unicode="e"
         horiz-adv-x="511"
         d="M482 313.001l-256 0 0 -140.502c0,-29.3309 2.16723,-48.3322 6.33375,-56.8332 4.3318,-8.49832 12.4996,-12.6648 24.6659,-12.6648 15.168,0 25.335,5.66466 30.3332,16.8314 5.16617,11.3346 7.66661,33.1669 7.66661,65.5021l0 85.6656 187 0 0 -47.999c0,-40.1671 -2.50045,-71.0015 -7.49867,-92.5005 -5.16883,-21.5017 -17.002,-44.5016 -35.5021,-68.9995 -18.5001,-24.5006 -42.1664,-42.8355 -70.6656,-55.1671 -28.4992,-12.1664 -64.1666,-18.3348 -107.167,-18.3348 -41.6652,0 -78.5002,6.00054 -110.499,18.1669 -31.834,12.0011 -56.6652,28.5019 -74.4989,49.4998 -17.8337,21.0006 -30,44.1683 -36.8349,69.5007 -6.83224,25.1671 -10.3323,61.8341 -10.3323,110.166l0 189.168c0,56.6652 7.66661,101.332 22.9998,134.166 15.3332,32.6684 40.3324,57.8328 75.1653,75.168 35.0009,17.5005 75.0001,26.1667 120.333,26.1667 55.335,0 101.002,-10.5003 137.002,-31.5008 35.9979,-21.0006 61.3329,-48.8333 75.8318,-83.5011 14.5015,-34.4998 21.667,-83.3331 21.667,-146.164l0 -85.8336zm-196.999 105l0 47.3325c0,33.6654 -1.83402,55.1671 -5.49938,65.0009 -3.66803,9.83118 -11.1667,14.6641 -22.5014,14.6641 -14.0004,0 -22.6666,-4.16652 -25.9988,-12.4996 -3.33482,-8.33304 -5.00089,-30.6665 -5.00089,-67.1655l0 -47.3325 59.0004 0z"
         id="glyph12-4" /><glyph
         unicode="T"
         horiz-adv-x="460"
         d="M455 791l0 -157.999 -120.999 0 0 -633.001 -206 0 0 633.001 -122.001 0 0 157.999 449.001 0z"
         id="glyph14-9" /><glyph
         unicode="b"
         horiz-adv-x="519"
         d="M232 790.999l0 -187.499c16.3329,18.9986 34.4998,33.1669 54.6659,42.4996 20.0009,9.33269 41.8332,14.0004 65.3342,14.0004 26.9984,0 50.4994,-4.16652 70.5003,-12.6675 19.833,-8.50098 34.9983,-20.3341 45.4985,-35.6673 10.5003,-15.3332 16.6661,-30.3332 18.8333,-45 2.16723,-14.6668 3.16688,-45.9997 3.16688,-93.8334l0 -292.331c0,-47.5005 -3.16688,-83.0026 -9.50063,-106.168 -6.49903,-23.3331 -21.3311,-43.4992 -44.8321,-60.6665 -23.6663,-17.1672 -51.4991,-25.6682 -83.8343,-25.6682 -23.1651,0 -44.8321,5.16883 -64.9983,15.3332 -20.0009,10.1671 -38.501,25.335 -55.1671,45.6691l-12.6675 -49.0013 -183.999 0 0 790.999 196.999 0zm60.9997 -326.999c0,33.5001 -2.16723,55.3324 -6.49903,65.6647 -4.16652,10.1671 -12.6675,15.3332 -25.1671,15.3332 -12.3343,0 -20.1662,-4.49974 -23.8342,-13.4992 -3.66537,-8.83153 -5.49938,-31.4982 -5.49938,-67.4987l0 -279.501c0,-34.833 1.99929,-57.1664 6.16581,-66.8323 4.16652,-9.83385 12.3343,-14.6668 24.6659,-14.6668 12.5022,0 20.6673,4.99823 24.5006,15.1653 3.83331,10.0018 5.66732,34.3345 5.66732,72.6676l0 273.167z"
         id="glyph16-1" /><glyph
         unicode="m"
         horiz-adv-x="771"
         d="M230.001 648l-3.0016 -61.6661c15.3332,24.5006 33.5001,43.0007 54.6659,55.1671 21.0006,12.3316 45.168,18.5001 72.1691,18.5001 52.6667,0 93.9987,-24.5006 124.332,-73.6672 16.5008,24.5006 35.1662,43.0007 56.0015,55.1671 20.8326,12.3316 43.8325,18.5001 69.3327,18.5001 33.3322,0 61.165,-8.16777 82.9999,-24.5006 22.0002,-16.1676 36.0006,-36.1658 42.1664,-59.8321 6.16581,-23.501 9.33269,-61.8341 9.33269,-115.002l0 -460.666 -190.999 0 0 422.501c0,55.3324 -1.83402,89.4989 -5.66732,102.665 -3.66537,13.1687 -12.3343,19.833 -26.1667,19.833 -14.0004,0 -22.9998,-6.49903 -27.0011,-19.4998 -4.16652,-12.9981 -6.16581,-47.3325 -6.16581,-102.998l0 -422.501 -190.999 0 0 411.667c0,63.5001 -1.5008,101.665 -4.66768,114.333 -2.99894,12.6675 -11.6652,18.9986 -25.6656,18.9986 -8.8342,0 -16.1676,-3.33215 -22.5014,-9.99912 -6.16581,-6.66697 -9.50063,-14.8321 -10.1671,-24.5006 -0.66643,-9.49796 -0.999645,-30 -0.999645,-61.165l0 -449.334 -190.999 0 0 648 194.001 0z"
         id="glyph18-47" /><glyph
         unicode="d"
         horiz-adv-x="519"
         d="M483.999 790.999l0 -790.999 -196.999 0 0 47.1673c-18.9986,-19.833 -38.8316,-34.4998 -59.6668,-44.3336 -21.0006,-9.83385 -42.8328,-14.8347 -65.6647,-14.8347 -30.6691,0 -57.3343,7.99983 -79.8357,24.1674 -22.4987,16.1676 -37.0002,34.833 -43.3313,56.0015 -6.33375,21.1658 -9.50063,55.6656 -9.50063,103.665l0 303.5c0,49.833 3.16688,85.1671 9.50063,106 6.33109,20.8353 20.9979,39.1674 43.8325,55.0018 22.8319,15.8317 50.1662,23.6663 81.8323,23.6663 24.5006,0 46.8341,-4.49974 67.3335,-13.3339 20.3341,-8.8342 38.8342,-22.0002 55.5003,-39.8339l0 184.167 196.999 0zm-196.999 -305.998c0,23.6663 -1.99929,39.6659 -6.16581,47.831 -4.16652,8.16777 -12.3343,12.1664 -24.5006,12.1664 -12.0011,0 -20.0009,-3.66537 -24.1674,-10.9988 -4.16652,-7.3334 -6.16581,-23.6663 -6.16581,-48.9986l0 -317.501c0,-26.3347 1.99929,-43.6672 6.00054,-52.0002 3.99858,-8.33304 11.4999,-12.4996 22.8319,-12.4996 12.8354,0 21.5017,4.66501 25.6682,14.0004 4.3318,9.16475 6.49903,31.8314 6.49903,67.9999l0 300z"
         id="glyph20-8" /><glyph
         unicode="a"
         horiz-adv-x="503"
         d="M211 397.001l-185.001 0 0 43.4992c0,50.1662 5.83526,88.8325 17.3352,116.167 11.4999,27.1664 34.833,51.1659 69.666,72.0011 34.833,20.8326 80.001,31.3329 135.834,31.3329 66.6644,0 116.999,-11.8331 150.832,-35.4994 33.8333,-23.501 54.1675,-52.5014 60.9997,-86.8332 6.83491,-34.3345 10.335,-105.168 10.335,-212.335l0 -325.333 -192.001 0 0 57.8328c-11.9984,-23.3331 -27.6675,-40.6656 -46.6661,-52.3334 -19.0013,-11.6652 -41.6679,-17.5005 -68.1678,-17.5005 -34.4998,0 -66.1659,9.66857 -94.9983,29.0004 -28.8351,19.4998 -43.1687,61.8341 -43.1687,127.334l0 53.3331c0,48.5001 7.66661,81.5018 23.0025,99.1675 15.3332,17.6657 53.3331,38.1678 114,61.5009 64.833,25.5003 99.498,42.4996 104.166,51.3311 4.49974,8.8342 6.83224,26.6679 6.83224,53.8342 0,33.8333 -2.49778,55.8335 -7.66661,66.1659 -4.99823,10.1671 -13.4992,15.3332 -25.3323,15.3332 -13.4992,0 -21.8323,-4.3318 -24.9991,-12.9981 -3.33482,-8.50098 -5.00089,-30.9997 -5.00089,-67.1682l0 -67.8319zm62.999 -88.8352c-31.8314,-23.1651 -50.3315,-42.4996 -55.3324,-58.166 -5.16617,-15.6664 -7.66661,-37.9999 -7.66661,-67.3335 0,-33.6654 2.16723,-55.1671 6.66697,-64.9983 4.33446,-9.83385 13.166,-14.6668 26.332,-14.6668 12.5022,0 20.5021,3.83331 24.3354,11.4999 3.83331,7.66661 5.66466,27.6649 5.66466,60.3333l0 133.331z"
         id="glyph22-9" /></font><style
       type="text/css"
       id="style25-9"><![CDATA[
    @font-face { font-family:"Impact";font-variant:normal;font-weight:normal;src:url("#FontID0") format(svg)}
    .str0 {stroke:#2B2A29;stroke-width:7.62;stroke-miterlimit:22.9256}
    .fil0 {fill:#FEFEFE}
    .fil1 {fill:#898989}
    .fil2 {fill:#7690C9}
    .fil3 {fill:#393185}
    .fnt1 {font-weight:normal;font-size:3751.33px;font-family:'Impact'}
    .fnt0 {font-weight:normal;font-size:3970.53px;font-family:'Impact'}
   ]]></style><g
       id="s-9"><g
         id="c-0"><path
           transform="rotate(18,3.1568758,-0.5)"
           d="M 0,0 V 1 H 0.5 Z"
           id="t-76" /><use
           id="use634-7"
           transform="scale(-1,1)"
           xlink:href="#t-76" /></g><g
         id="a-9"><use
           id="use637-1"
           transform="rotate(72)"
           xlink:href="#c-0" /><use
           id="use639-4"
           transform="rotate(144)"
           xlink:href="#c-0" /></g><use
         id="use642-35"
         transform="scale(-1,1)"
         xlink:href="#a-9" /></g><font
       id="FontID0-1"
       horiz-adv-x="507"
       font-variant="normal"
       font-weight="400"
       horiz-origin-x="0"
       horiz-origin-y="0"
       vert-origin-x="45"
       vert-origin-y="90"
       vert-adv-y="90"><font-face
         font-family="Impact"
         id="font-face2-55"><font-face-src><font-face-name
             name="Impact" /></font-face-src></font-face><missing-glyph
         id="missing-glyph6-75"><path
           d="M0 0z"
           id="path4-2" /></missing-glyph><glyph
         unicode="L"
         horiz-adv-x="380"
         d="M247 791l0 -633.001 124.001 0 0 -157.999 -330.001 0 0 791 206 0z"
         id="glyph8-7" /><glyph
         unicode="k"
         horiz-adv-x="478"
         d="M460 648l-79.9983 -258.5 102.998 -389.499 -188.498 0 -62.002 282.167 -0.49849 -282.167 -196.999 0 0 790.999 196.999 0 0.49849 -332.666 62.002 189.666 165.499 0z"
         id="glyph10-9" /><glyph
         unicode="e"
         horiz-adv-x="511"
         d="M482 313.001l-256 0 0 -140.502c0,-29.3309 2.16723,-48.3322 6.33375,-56.8332 4.3318,-8.49832 12.4996,-12.6648 24.6659,-12.6648 15.168,0 25.335,5.66466 30.3332,16.8314 5.16617,11.3346 7.66661,33.1669 7.66661,65.5021l0 85.6656 187 0 0 -47.999c0,-40.1671 -2.50045,-71.0015 -7.49867,-92.5005 -5.16883,-21.5017 -17.002,-44.5016 -35.5021,-68.9995 -18.5001,-24.5006 -42.1664,-42.8355 -70.6656,-55.1671 -28.4992,-12.1664 -64.1666,-18.3348 -107.167,-18.3348 -41.6652,0 -78.5002,6.00054 -110.499,18.1669 -31.834,12.0011 -56.6652,28.5019 -74.4989,49.4998 -17.8337,21.0006 -30,44.1683 -36.8349,69.5007 -6.83224,25.1671 -10.3323,61.8341 -10.3323,110.166l0 189.168c0,56.6652 7.66661,101.332 22.9998,134.166 15.3332,32.6684 40.3324,57.8328 75.1653,75.168 35.0009,17.5005 75.0001,26.1667 120.333,26.1667 55.335,0 101.002,-10.5003 137.002,-31.5008 35.9979,-21.0006 61.3329,-48.8333 75.8318,-83.5011 14.5015,-34.4998 21.667,-83.3331 21.667,-146.164l0 -85.8336zm-196.999 105l0 47.3325c0,33.6654 -1.83402,55.1671 -5.49938,65.0009 -3.66803,9.83118 -11.1667,14.6641 -22.5014,14.6641 -14.0004,0 -22.6666,-4.16652 -25.9988,-12.4996 -3.33482,-8.33304 -5.00089,-30.6665 -5.00089,-67.1655l0 -47.3325 59.0004 0z"
         id="glyph12-60" /><glyph
         unicode="T"
         horiz-adv-x="460"
         d="M455 791l0 -157.999 -120.999 0 0 -633.001 -206 0 0 633.001 -122.001 0 0 157.999 449.001 0z"
         id="glyph14-0" /><glyph
         unicode="b"
         horiz-adv-x="519"
         d="M232 790.999l0 -187.499c16.3329,18.9986 34.4998,33.1669 54.6659,42.4996 20.0009,9.33269 41.8332,14.0004 65.3342,14.0004 26.9984,0 50.4994,-4.16652 70.5003,-12.6675 19.833,-8.50098 34.9983,-20.3341 45.4985,-35.6673 10.5003,-15.3332 16.6661,-30.3332 18.8333,-45 2.16723,-14.6668 3.16688,-45.9997 3.16688,-93.8334l0 -292.331c0,-47.5005 -3.16688,-83.0026 -9.50063,-106.168 -6.49903,-23.3331 -21.3311,-43.4992 -44.8321,-60.6665 -23.6663,-17.1672 -51.4991,-25.6682 -83.8343,-25.6682 -23.1651,0 -44.8321,5.16883 -64.9983,15.3332 -20.0009,10.1671 -38.501,25.335 -55.1671,45.6691l-12.6675 -49.0013 -183.999 0 0 790.999 196.999 0zm60.9997 -326.999c0,33.5001 -2.16723,55.3324 -6.49903,65.6647 -4.16652,10.1671 -12.6675,15.3332 -25.1671,15.3332 -12.3343,0 -20.1662,-4.49974 -23.8342,-13.4992 -3.66537,-8.83153 -5.49938,-31.4982 -5.49938,-67.4987l0 -279.501c0,-34.833 1.99929,-57.1664 6.16581,-66.8323 4.16652,-9.83385 12.3343,-14.6668 24.6659,-14.6668 12.5022,0 20.6673,4.99823 24.5006,15.1653 3.83331,10.0018 5.66732,34.3345 5.66732,72.6676l0 273.167z"
         id="glyph16-58" /><glyph
         unicode="m"
         horiz-adv-x="771"
         d="M230.001 648l-3.0016 -61.6661c15.3332,24.5006 33.5001,43.0007 54.6659,55.1671 21.0006,12.3316 45.168,18.5001 72.1691,18.5001 52.6667,0 93.9987,-24.5006 124.332,-73.6672 16.5008,24.5006 35.1662,43.0007 56.0015,55.1671 20.8326,12.3316 43.8325,18.5001 69.3327,18.5001 33.3322,0 61.165,-8.16777 82.9999,-24.5006 22.0002,-16.1676 36.0006,-36.1658 42.1664,-59.8321 6.16581,-23.501 9.33269,-61.8341 9.33269,-115.002l0 -460.666 -190.999 0 0 422.501c0,55.3324 -1.83402,89.4989 -5.66732,102.665 -3.66537,13.1687 -12.3343,19.833 -26.1667,19.833 -14.0004,0 -22.9998,-6.49903 -27.0011,-19.4998 -4.16652,-12.9981 -6.16581,-47.3325 -6.16581,-102.998l0 -422.501 -190.999 0 0 411.667c0,63.5001 -1.5008,101.665 -4.66768,114.333 -2.99894,12.6675 -11.6652,18.9986 -25.6656,18.9986 -8.8342,0 -16.1676,-3.33215 -22.5014,-9.99912 -6.16581,-6.66697 -9.50063,-14.8321 -10.1671,-24.5006 -0.66643,-9.49796 -0.999645,-30 -0.999645,-61.165l0 -449.334 -190.999 0 0 648 194.001 0z"
         id="glyph18-5" /><glyph
         unicode="d"
         horiz-adv-x="519"
         d="M483.999 790.999l0 -790.999 -196.999 0 0 47.1673c-18.9986,-19.833 -38.8316,-34.4998 -59.6668,-44.3336 -21.0006,-9.83385 -42.8328,-14.8347 -65.6647,-14.8347 -30.6691,0 -57.3343,7.99983 -79.8357,24.1674 -22.4987,16.1676 -37.0002,34.833 -43.3313,56.0015 -6.33375,21.1658 -9.50063,55.6656 -9.50063,103.665l0 303.5c0,49.833 3.16688,85.1671 9.50063,106 6.33109,20.8353 20.9979,39.1674 43.8325,55.0018 22.8319,15.8317 50.1662,23.6663 81.8323,23.6663 24.5006,0 46.8341,-4.49974 67.3335,-13.3339 20.3341,-8.8342 38.8342,-22.0002 55.5003,-39.8339l0 184.167 196.999 0zm-196.999 -305.998c0,23.6663 -1.99929,39.6659 -6.16581,47.831 -4.16652,8.16777 -12.3343,12.1664 -24.5006,12.1664 -12.0011,0 -20.0009,-3.66537 -24.1674,-10.9988 -4.16652,-7.3334 -6.16581,-23.6663 -6.16581,-48.9986l0 -317.501c0,-26.3347 1.99929,-43.6672 6.00054,-52.0002 3.99858,-8.33304 11.4999,-12.4996 22.8319,-12.4996 12.8354,0 21.5017,4.66501 25.6682,14.0004 4.3318,9.16475 6.49903,31.8314 6.49903,67.9999l0 300z"
         id="glyph20-4" /><glyph
         unicode="a"
         horiz-adv-x="503"
         d="M211 397.001l-185.001 0 0 43.4992c0,50.1662 5.83526,88.8325 17.3352,116.167 11.4999,27.1664 34.833,51.1659 69.666,72.0011 34.833,20.8326 80.001,31.3329 135.834,31.3329 66.6644,0 116.999,-11.8331 150.832,-35.4994 33.8333,-23.501 54.1675,-52.5014 60.9997,-86.8332 6.83491,-34.3345 10.335,-105.168 10.335,-212.335l0 -325.333 -192.001 0 0 57.8328c-11.9984,-23.3331 -27.6675,-40.6656 -46.6661,-52.3334 -19.0013,-11.6652 -41.6679,-17.5005 -68.1678,-17.5005 -34.4998,0 -66.1659,9.66857 -94.9983,29.0004 -28.8351,19.4998 -43.1687,61.8341 -43.1687,127.334l0 53.3331c0,48.5001 7.66661,81.5018 23.0025,99.1675 15.3332,17.6657 53.3331,38.1678 114,61.5009 64.833,25.5003 99.498,42.4996 104.166,51.3311 4.49974,8.8342 6.83224,26.6679 6.83224,53.8342 0,33.8333 -2.49778,55.8335 -7.66661,66.1659 -4.99823,10.1671 -13.4992,15.3332 -25.3323,15.3332 -13.4992,0 -21.8323,-4.3318 -24.9991,-12.9981 -3.33482,-8.50098 -5.00089,-30.9997 -5.00089,-67.1682l0 -67.8319zm62.999 -88.8352c-31.8314,-23.1651 -50.3315,-42.4996 -55.3324,-58.166 -5.16617,-15.6664 -7.66661,-37.9999 -7.66661,-67.3335 0,-33.6654 2.16723,-55.1671 6.66697,-64.9983 4.33446,-9.83385 13.166,-14.6668 26.332,-14.6668 12.5022,0 20.5021,3.83331 24.3354,11.4999 3.83331,7.66661 5.66466,27.6649 5.66466,60.3333l0 133.331z"
         id="glyph22-8" /></font><style
       type="text/css"
       id="style25-97"><![CDATA[
    @font-face { font-family:"Impact";font-variant:normal;font-weight:normal;src:url("#FontID0") format(svg)}
    .str0 {stroke:#2B2A29;stroke-width:7.62;stroke-miterlimit:22.9256}
    .fil0 {fill:#FEFEFE}
    .fil1 {fill:#898989}
    .fil2 {fill:#7690C9}
    .fil3 {fill:#393185}
    .fnt1 {font-weight:normal;font-size:3751.33px;font-family:'Impact'}
    .fnt0 {font-weight:normal;font-size:3970.53px;font-family:'Impact'}
   ]]></style><g
       id="s-93"><g
         id="c-2"><path
           transform="rotate(18,3.1568758,-0.5)"
           d="M 0,0 V 1 H 0.5 Z"
           id="t-3" /><use
           id="use634-3"
           transform="scale(-1,1)"
           xlink:href="#t-3" /></g><g
         id="a-65"><use
           id="use637-8"
           transform="rotate(72)"
           xlink:href="#c-2" /><use
           id="use639-58"
           transform="rotate(144)"
           xlink:href="#c-2" /></g><use
         id="use642-38"
         transform="scale(-1,1)"
         xlink:href="#a-65" /></g><font
       id="FontID0-3"
       horiz-adv-x="507"
       font-variant="normal"
       font-weight="400"
       horiz-origin-x="0"
       horiz-origin-y="0"
       vert-origin-x="45"
       vert-origin-y="90"
       vert-adv-y="90"><font-face
         font-family="Impact"
         id="font-face2-8"><font-face-src><font-face-name
             name="Impact" /></font-face-src></font-face><missing-glyph
         id="missing-glyph6-6"><path
           d="M0 0z"
           id="path4-45" /></missing-glyph><glyph
         unicode="L"
         horiz-adv-x="380"
         d="M247 791l0 -633.001 124.001 0 0 -157.999 -330.001 0 0 791 206 0z"
         id="glyph8-65" /><glyph
         unicode="k"
         horiz-adv-x="478"
         d="M460 648l-79.9983 -258.5 102.998 -389.499 -188.498 0 -62.002 282.167 -0.49849 -282.167 -196.999 0 0 790.999 196.999 0 0.49849 -332.666 62.002 189.666 165.499 0z"
         id="glyph10-1" /><glyph
         unicode="e"
         horiz-adv-x="511"
         d="M482 313.001l-256 0 0 -140.502c0,-29.3309 2.16723,-48.3322 6.33375,-56.8332 4.3318,-8.49832 12.4996,-12.6648 24.6659,-12.6648 15.168,0 25.335,5.66466 30.3332,16.8314 5.16617,11.3346 7.66661,33.1669 7.66661,65.5021l0 85.6656 187 0 0 -47.999c0,-40.1671 -2.50045,-71.0015 -7.49867,-92.5005 -5.16883,-21.5017 -17.002,-44.5016 -35.5021,-68.9995 -18.5001,-24.5006 -42.1664,-42.8355 -70.6656,-55.1671 -28.4992,-12.1664 -64.1666,-18.3348 -107.167,-18.3348 -41.6652,0 -78.5002,6.00054 -110.499,18.1669 -31.834,12.0011 -56.6652,28.5019 -74.4989,49.4998 -17.8337,21.0006 -30,44.1683 -36.8349,69.5007 -6.83224,25.1671 -10.3323,61.8341 -10.3323,110.166l0 189.168c0,56.6652 7.66661,101.332 22.9998,134.166 15.3332,32.6684 40.3324,57.8328 75.1653,75.168 35.0009,17.5005 75.0001,26.1667 120.333,26.1667 55.335,0 101.002,-10.5003 137.002,-31.5008 35.9979,-21.0006 61.3329,-48.8333 75.8318,-83.5011 14.5015,-34.4998 21.667,-83.3331 21.667,-146.164l0 -85.8336zm-196.999 105l0 47.3325c0,33.6654 -1.83402,55.1671 -5.49938,65.0009 -3.66803,9.83118 -11.1667,14.6641 -22.5014,14.6641 -14.0004,0 -22.6666,-4.16652 -25.9988,-12.4996 -3.33482,-8.33304 -5.00089,-30.6665 -5.00089,-67.1655l0 -47.3325 59.0004 0z"
         id="glyph12-89" /><glyph
         unicode="T"
         horiz-adv-x="460"
         d="M455 791l0 -157.999 -120.999 0 0 -633.001 -206 0 0 633.001 -122.001 0 0 157.999 449.001 0z"
         id="glyph14-20" /><glyph
         unicode="b"
         horiz-adv-x="519"
         d="M232 790.999l0 -187.499c16.3329,18.9986 34.4998,33.1669 54.6659,42.4996 20.0009,9.33269 41.8332,14.0004 65.3342,14.0004 26.9984,0 50.4994,-4.16652 70.5003,-12.6675 19.833,-8.50098 34.9983,-20.3341 45.4985,-35.6673 10.5003,-15.3332 16.6661,-30.3332 18.8333,-45 2.16723,-14.6668 3.16688,-45.9997 3.16688,-93.8334l0 -292.331c0,-47.5005 -3.16688,-83.0026 -9.50063,-106.168 -6.49903,-23.3331 -21.3311,-43.4992 -44.8321,-60.6665 -23.6663,-17.1672 -51.4991,-25.6682 -83.8343,-25.6682 -23.1651,0 -44.8321,5.16883 -64.9983,15.3332 -20.0009,10.1671 -38.501,25.335 -55.1671,45.6691l-12.6675 -49.0013 -183.999 0 0 790.999 196.999 0zm60.9997 -326.999c0,33.5001 -2.16723,55.3324 -6.49903,65.6647 -4.16652,10.1671 -12.6675,15.3332 -25.1671,15.3332 -12.3343,0 -20.1662,-4.49974 -23.8342,-13.4992 -3.66537,-8.83153 -5.49938,-31.4982 -5.49938,-67.4987l0 -279.501c0,-34.833 1.99929,-57.1664 6.16581,-66.8323 4.16652,-9.83385 12.3343,-14.6668 24.6659,-14.6668 12.5022,0 20.6673,4.99823 24.5006,15.1653 3.83331,10.0018 5.66732,34.3345 5.66732,72.6676l0 273.167z"
         id="glyph16-35" /><glyph
         unicode="m"
         horiz-adv-x="771"
         d="M230.001 648l-3.0016 -61.6661c15.3332,24.5006 33.5001,43.0007 54.6659,55.1671 21.0006,12.3316 45.168,18.5001 72.1691,18.5001 52.6667,0 93.9987,-24.5006 124.332,-73.6672 16.5008,24.5006 35.1662,43.0007 56.0015,55.1671 20.8326,12.3316 43.8325,18.5001 69.3327,18.5001 33.3322,0 61.165,-8.16777 82.9999,-24.5006 22.0002,-16.1676 36.0006,-36.1658 42.1664,-59.8321 6.16581,-23.501 9.33269,-61.8341 9.33269,-115.002l0 -460.666 -190.999 0 0 422.501c0,55.3324 -1.83402,89.4989 -5.66732,102.665 -3.66537,13.1687 -12.3343,19.833 -26.1667,19.833 -14.0004,0 -22.9998,-6.49903 -27.0011,-19.4998 -4.16652,-12.9981 -6.16581,-47.3325 -6.16581,-102.998l0 -422.501 -190.999 0 0 411.667c0,63.5001 -1.5008,101.665 -4.66768,114.333 -2.99894,12.6675 -11.6652,18.9986 -25.6656,18.9986 -8.8342,0 -16.1676,-3.33215 -22.5014,-9.99912 -6.16581,-6.66697 -9.50063,-14.8321 -10.1671,-24.5006 -0.66643,-9.49796 -0.999645,-30 -0.999645,-61.165l0 -449.334 -190.999 0 0 648 194.001 0z"
         id="glyph18-8" /><glyph
         unicode="d"
         horiz-adv-x="519"
         d="M483.999 790.999l0 -790.999 -196.999 0 0 47.1673c-18.9986,-19.833 -38.8316,-34.4998 -59.6668,-44.3336 -21.0006,-9.83385 -42.8328,-14.8347 -65.6647,-14.8347 -30.6691,0 -57.3343,7.99983 -79.8357,24.1674 -22.4987,16.1676 -37.0002,34.833 -43.3313,56.0015 -6.33375,21.1658 -9.50063,55.6656 -9.50063,103.665l0 303.5c0,49.833 3.16688,85.1671 9.50063,106 6.33109,20.8353 20.9979,39.1674 43.8325,55.0018 22.8319,15.8317 50.1662,23.6663 81.8323,23.6663 24.5006,0 46.8341,-4.49974 67.3335,-13.3339 20.3341,-8.8342 38.8342,-22.0002 55.5003,-39.8339l0 184.167 196.999 0zm-196.999 -305.998c0,23.6663 -1.99929,39.6659 -6.16581,47.831 -4.16652,8.16777 -12.3343,12.1664 -24.5006,12.1664 -12.0011,0 -20.0009,-3.66537 -24.1674,-10.9988 -4.16652,-7.3334 -6.16581,-23.6663 -6.16581,-48.9986l0 -317.501c0,-26.3347 1.99929,-43.6672 6.00054,-52.0002 3.99858,-8.33304 11.4999,-12.4996 22.8319,-12.4996 12.8354,0 21.5017,4.66501 25.6682,14.0004 4.3318,9.16475 6.49903,31.8314 6.49903,67.9999l0 300z"
         id="glyph20-89" /><glyph
         unicode="a"
         horiz-adv-x="503"
         d="M211 397.001l-185.001 0 0 43.4992c0,50.1662 5.83526,88.8325 17.3352,116.167 11.4999,27.1664 34.833,51.1659 69.666,72.0011 34.833,20.8326 80.001,31.3329 135.834,31.3329 66.6644,0 116.999,-11.8331 150.832,-35.4994 33.8333,-23.501 54.1675,-52.5014 60.9997,-86.8332 6.83491,-34.3345 10.335,-105.168 10.335,-212.335l0 -325.333 -192.001 0 0 57.8328c-11.9984,-23.3331 -27.6675,-40.6656 -46.6661,-52.3334 -19.0013,-11.6652 -41.6679,-17.5005 -68.1678,-17.5005 -34.4998,0 -66.1659,9.66857 -94.9983,29.0004 -28.8351,19.4998 -43.1687,61.8341 -43.1687,127.334l0 53.3331c0,48.5001 7.66661,81.5018 23.0025,99.1675 15.3332,17.6657 53.3331,38.1678 114,61.5009 64.833,25.5003 99.498,42.4996 104.166,51.3311 4.49974,8.8342 6.83224,26.6679 6.83224,53.8342 0,33.8333 -2.49778,55.8335 -7.66661,66.1659 -4.99823,10.1671 -13.4992,15.3332 -25.3323,15.3332 -13.4992,0 -21.8323,-4.3318 -24.9991,-12.9981 -3.33482,-8.50098 -5.00089,-30.9997 -5.00089,-67.1682l0 -67.8319zm62.999 -88.8352c-31.8314,-23.1651 -50.3315,-42.4996 -55.3324,-58.166 -5.16617,-15.6664 -7.66661,-37.9999 -7.66661,-67.3335 0,-33.6654 2.16723,-55.1671 6.66697,-64.9983 4.33446,-9.83385 13.166,-14.6668 26.332,-14.6668 12.5022,0 20.5021,3.83331 24.3354,11.4999 3.83331,7.66661 5.66466,27.6649 5.66466,60.3333l0 133.331z"
         id="glyph22-81" /></font>
</defs>
</svg>
